<?xml version="1.0" standalone="no"?>
<!DOCTYPE svg PUBLIC "-//W3C//DTD SVG 1.1//EN" "http://www.w3.org/Graphics/SVG/1.1/DTD/svg11.dtd" >
<svg xmlns="http://www.w3.org/2000/svg">
<metadata>
Created by FontForge 20120731 at Mon Jul  3 15:08:55 2017
 By admin
</metadata>
<defs>
<font id="iconfont" horiz-adv-x="1024" >
  <font-face 
    font-family="iconfont"
    font-weight="500"
    font-stretch="normal"
    units-per-em="1024"
    panose-1="2 0 6 3 0 0 0 0 0 0"
    ascent="896"
    descent="-128"
    x-height="792"
    bbox="0 -198 1098 896"
    underline-thickness="0"
    underline-position="0"
    unicode-range="U+0078-E67C"
  />
<missing-glyph 
 />
    <glyph glyph-name=".notdef" 
 />
    <glyph glyph-name=".notdef" 
 />
    <glyph glyph-name=".null" horiz-adv-x="0" 
 />
    <glyph glyph-name="nonmarkingreturn" horiz-adv-x="341" 
 />
    <glyph glyph-name="x" unicode="x" horiz-adv-x="1001" 
d="M281 543q-27 -1 -53 -1h-83q-18 0 -36.5 -6t-32.5 -18.5t-23 -32t-9 -45.5v-76h912v41q0 16 -0.5 30t-0.5 18q0 13 -5 29t-17 29.5t-31.5 22.5t-49.5 9h-133v-97h-438v97zM955 310v-52q0 -23 0.5 -52t0.5 -58t-10.5 -47.5t-26 -30t-33 -16t-31.5 -4.5q-14 -1 -29.5 -0.5
t-29.5 0.5h-32l-45 128h-439l-44 -128h-29h-34q-20 0 -45 1q-25 0 -41 9.5t-25.5 23t-13.5 29.5t-4 30v167h911zM163 247q-12 0 -21 -8.5t-9 -21.5t9 -21.5t21 -8.5q13 0 22 8.5t9 21.5t-9 21.5t-22 8.5zM316 123q-8 -26 -14 -48q-5 -19 -10.5 -37t-7.5 -25t-3 -15t1 -14.5
t9.5 -10.5t21.5 -4h37h67h81h80h64h36q23 0 34 12t2 38q-5 13 -9.5 30.5t-9.5 34.5q-5 19 -11 39h-368zM336 498v228q0 11 2.5 23t10 21.5t20.5 15.5t34 6h188q31 0 51.5 -14.5t20.5 -52.5v-227h-327z" />
    <glyph glyph-name="sousuo" unicode="&#xe611;" horiz-adv-x="1000" 
d="M936 -24l-198 203q-1 1 -3.5 2.5t-3.5 2.5q66 93 66 207q0 98 -48 181t-131 131t-180.5 48t-180.5 -48t-131 -131t-48 -180.5t48 -180.5t131 -131t181 -48q121 0 218 74q0 -1 1 -2.5t2 -1.5l198 -204q17 -16 40 -16q22 0 39 15q16 16 16 39t-16 40zM133 391.5
q0 125.5 89.5 215t215.5 89.5t215 -89.5t89 -215t-89 -215t-215 -89.5t-215.5 89.5t-89.5 215z" />
    <glyph glyph-name="QQ" unicode="&#xe609;" 
d="M971 143l-2 18l-3 17l-3 9l-2 9l-3 9l-4 10l-3 10l-4 9l-8 16l-6 14l-7 13l-5 11l-7 11l-5 9l-10 15l-12 19l-3 5l-1 2v1l2 7l3 6l2 11l2 6v6v5v5v6l-1 4l-2 10l-2 9l-3 8l-3 8l-4 7l-3 7l-3 6l-6 9l-2 3v2l-3 18l-1 11l-2 14l-3 15l-4 17l-3 9l-2 8l-3 9l-3 10l-3 9
l-4 10l-8 19l-5 9l-6 10l-5 9l-6 10l-7 10l-7 8l-8 10l-8 8l-8 8l-9 9l-5 3l-5 4l-11 7l-12 8l-12 7l-13 7l-13 6l-13 6l-14 4l-15 4l-13 4l-15 3l-13 4l-15 1l-14 2l-15 2h-15h-14h-14l-14 -1l-14 -2l-14 -2l-13 -2l-14 -3l-13 -3l-13 -4l-12 -4l-12 -4l-12 -6l-12 -5
l-10 -6l-10 -6l-10 -7l-10 -8l-8 -7l-12 -12l-10 -10l-10 -11l-9 -11l-9 -11l-7 -10l-7 -11l-4 -5l-3 -6l-7 -10l-5 -10l-5 -10l-4 -10l-4 -9l-3 -9l-3 -9l-4 -8l-4 -16l-3 -15l-1 -12l-2 -11v-8v-7v-6l-3 -3l-3 -4l-2 -4l-2 -4l-2 -9l-3 -9v-7l-1 -6v-6l-6 -8l-4 -9l-3 -8
l-2 -7l-2 -7l-2 -6v-6v-6v-5l1 -4l2 -7l1 -6l-3 -3l-9 -6l-12 -11l-7 -7l-7 -6l-5 -5l-4 -5l-9 -9l-8 -10l-7 -8l-8 -11l-7 -11l-7 -12l-7 -11l-5 -11l-5 -11l-4 -10l-4 -11l-3 -11l-3 -11l-3 -10l-2 -10l-1 -9l-2 -10l-1 -18v-17v-7l1 -7l2 -13l1 -6l2 -5l2 -6l1 -3l3 -7
l2 -2l2 -3h1h1h1h7l7 2l7 3l6 4l6 4l5 5l6 5l5 6l5 6l4 6l4 4l2 6l5 8l2 4l1 2v3l1 2h1l2 1h1v-1h1h1l3 -12l2 -10l4 -10l4 -9l4 -9l5 -8l4 -9l4 -7l5 -7l3 -6l10 -12l9 -11l8 -8l8 -7l7 -6l11 -10l4 -2l2 -2v-1l-1 -1h-1h-2l-8 -1l-7 -1l-6 -1l-7 -1l-5 -2l-6 -2l-5 -2
l-4 -3l-5 -1l-3 -3l-3 -2l-4 -3l-4 -5l-2 -3l-2 -2l-3 -6l-2 -5l-1 -5l-1 -4v-6v-3l-1 -4v-4l-1 -4v-3l1 -4l1 -4l2 -7l2 -3l2 -3l2 -3l3 -3l3 -3l2 -3l7 -5l8 -4l8 -5l9 -3l9 -4l11 -2l10 -4l11 -2l12 -2l11 -2l12 -1l24 -3h24h23h10h10h11l9 1l9 1l8 1l13 2l9 3l9 2l17 7
l8 3l7 3l12 7l10 6l8 5l6 5l9 -1l7 -1l14 -1h6h6l4 -1l4 -1l7 -3l8 -2l14 -5l15 -5l14 -4l14 -3l15 -4l15 -2l15 -2l14 -2l14 -1l15 -1h13h14h13l13 1l13 1l12 2l11 3l11 2l11 3l5 1l5 2l9 3l8 4l8 4l8 4l6 5l3 3l3 4l4 4l4 6l1 3l1 3l2 3l1 3v4l1 3l-1 5l-1 4l-2 5l-1 4
l-3 5l-3 5l-3 3l-4 4l-9 7l-10 8l-10 5l-10 6l-23 12l-6 3l-2 2l-1 1l12 11l5 6l4 5l8 12l7 11l6 11l6 10l8 20l7 16l4 12l2 4l2 3l2 2h1h1l6 -12l5 -12l4 -7l4 -5l4 -7l5 -7l4 -5l3 -2l2 -3l2 -1l3 -2l4 -2l3 -1h2h2l2 1l4 1l3 2l3 2l3 3l3 4l2 3l3 5l2 3l2 6l2 4l3 11
l2 12l2 14l1 8v6v7v9z" />
    <glyph glyph-name="QQ1" unicode="&#xe605;" 
d="M274 332l-2 4l-1 4v3v3v4v4l1 4l1 5l2 5l2 5l2 5l4 6v4l1 3v5l2 6l2 6l1 3l1 2l2 3l2 2v4v4v6l1 7l1 8l2 10l3 10l2 6l2 6l3 5l2 7l3 6l3 6l4 7l5 7l2 4l2 3l5 7l5 7l6 7l6 7l6 7l7 7l9 8l5 4l6 6l7 4l7 4l7 4l8 3l8 4l8 3l8 3l9 2l9 2l9 2l9 2l9 1l10 1l9 1h10h9h10
l10 -2l10 -1l10 -1l9 -2l10 -2l9 -2l10 -3l9 -3l9 -4l9 -4l8 -4l9 -5l8 -5l7 -5l3 -3l3 -2l7 -5l5 -6l6 -5l5 -6l5 -6l5 -6l3 -7l4 -6l4 -6l3 -6l6 -13l2 -6l2 -6l3 -7l1 -6l2 -5l1 -6l3 -11l2 -10l2 -9l1 -8l1 -11l1 -2l1 -2l4 -6l2 -4l2 -4l3 -4l2 -6l1 -5l2 -6l1 -6l1 -3
v-4v-3v-4v-4l-1 -4l-2 -7l-2 -4l-1 -4v-1l1 -1l1 -4l9 -12l7 -10l3 -6l4 -7l4 -8l5 -8l4 -9l5 -10l3 -7l2 -6l2 -6l3 -6l1 -7l2 -5l2 -12l2 -11l1 -11v-5v-5v-4l-1 -5l-1 -9l-2 -8l-2 -7l-1 -3l-1 -4l-2 -2l-2 -3l-1 -2l-2 -3l-2 -2l-2 -1l-2 -1l-3 -1l-1 -1h-2h-1l-2 1
l-3 1l-1 1l-2 1l-2 2l-1 2l-3 3l-4 4l-2 5l-3 4l-2 4l-4 7l-4 8l-1 1v0l-2 -2l-1 -2l-2 -2l-2 -8l-5 -11l-5 -13l-4 -7l-4 -6l-5 -8l-6 -8l-2 -3l-4 -4l-7 -7v-1l1 -1l4 -2l16 -8l7 -4l7 -4l6 -4l6 -5l3 -2l2 -3l2 -3l2 -3l1 -3l1 -3l1 -3v-3v-2v-2l-1 -3l-1 -2l-1 -1l-1 -2
l-3 -4l-2 -3l-2 -3l-2 -2l-4 -3l-5 -3l-6 -2l-5 -3l-7 -2l-3 -1l-3 -1l-7 -2l-8 -1l-7 -2l-9 -1l-8 -1l-9 -1h-9h-9h-9l-10 1l-9 1l-10 1l-10 1l-10 1l-10 3l-10 2l-9 3l-10 3l-10 3l-5 2l-5 1l-3 1l-2 1h-4h-4l-10 1h-5l-6 1l-4 -4l-5 -3l-7 -4l-8 -4l-5 -2l-5 -2l-11 -5
l-6 -1l-7 -2l-8 -2h-6l-6 -1h-6l-7 -1h-7h-7h-15l-17 1l-16 1l-8 1l-7 2l-8 1l-8 1l-7 3l-7 1l-6 3l-6 2l-6 3l-4 3l-5 3l-2 2l-2 2l-2 2l-1 2l-2 2l-1 2l-1 5l-1 2v2v3v2v3l1 3v1v4v3l1 3l1 3l2 4l2 2l1 2l3 3l2 2l3 2l2 1l3 1l3 2l3 2l4 1l4 1l4 1h4l5 1h5l2 1v0h1v1l-1 1
l-3 2l-7 6l-5 4l-5 5l-6 5l-6 7l-6 8l-3 4l-3 4l-3 5l-3 6l-3 5l-2 6l-3 6l-3 7l-2 6l-2 8v0h-1v1h-1l-1 -1v0l-1 -1v-2l-1 -1l-1 -3l-3 -6l-2 -3l-3 -3l-2 -4l-4 -4l-3 -4l-4 -3l-3 -3l-4 -3l-5 -3l-4 -1l-5 -2h-5v0h-1h-1l-1 2l-1 1l-2 5l-1 2l-2 4l-1 4v3l-2 8v5v5v11v12
l1 6l1 7l1 6l2 7l2 7l2 7l3 7l3 7l4 7l3 8l4 7l5 7l5 7l5 8l5 5l5 7l6 6l3 3l3 3l5 4l5 5l8 7l6 4z" />
    <glyph glyph-name="youxiang" unicode="&#xe620;" 
d="M512 181l416 347q-1 0 -3.5 0.5t-3.5 0.5h-818q-1 0 -3.5 -0.5t-3.5 -0.5zM958 492q0 4 -2 11l-295 -246l295 -295q2 7 2 9v521zM68 503q-2 -7 -2 -11v-521q0 -1 2 -9l295 295zM633 234l-109 -91q-5 -4 -12 -4t-12 4l-108 90l-298 -297q7 -2 9 -2h818q2 0 9 2z" />
    <glyph glyph-name="caidan" unicode="&#xe601;" 
d="M112 656h800v-48h-800v48zM112 416h800v-48h-800v48zM112 160h800v-48h-800v48z" />
    <glyph glyph-name="weibo" unicode="&#xe619;" 
d="M730 320l15 35q29 92 -54 107q-67 12 -205 -33q34 29 33 73t-30 65q-30 19 -69 18.5t-84 -22.5t-90 -54.5t-86 -76.5t-72.5 -89.5t-50.5 -93t-19 -86.5q0 -44 24.5 -89t71 -84t126.5 -64t180 -25q101 0 183 21t132.5 53t85 71.5t48 75t13.5 65.5q0 37 -15.5 64t-38 39.5
t-44.5 20t-38 8.5zM432 -49.5q-123 -11.5 -215.5 39.5t-100 134.5t73.5 150.5t204 78.5t215.5 -39.5t100.5 -134.5t-73.5 -150.5t-204.5 -78.5zM374 273q-67 -11 -107 -59.5t-30.5 -105.5t63.5 -89.5t120.5 -21t107 60t30.5 105.5t-63.5 89t-120.5 21zM358.5 56
q-21.5 -6 -40.5 4t-24.5 29.5t6 37.5t33 24t40.5 -3.5t24.5 -29.5t-6 -38t-33 -24zM433 141q-11 0 -19 7.5t-8 18.5t8 19t19 8t19 -8t8 -19t-8 -18.5t-19 -7.5zM951 604q-44 57 -113 80.5t-153 11.5q-14 -2 -23 -13.5t-7 -25.5t13.5 -22.5t26.5 -6.5q134 19 201 -66
q30 -39 38 -89t-10 -93q-5 -13 0.5 -26t18.5 -19q7 -2 13 -2q24 0 32 21q25 60 14.5 129t-51.5 121zM718 570q-14 -2 -22.5 -13.5t-6.5 -25.5t13.5 -22.5t25.5 -6.5q49 7 72 -22q10 -13 12.5 -30t-3.5 -32q-5 -13 0.5 -26t18.5 -19q7 -2 13 -2q24 0 33 21q12 32 7 67.5
t-27 62.5q-47 61 -136 48z" />
    <glyph glyph-name="kefu" unicode="&#xe606;" 
d="M509 633q-104 0 -178 -72t-74 -174.5t74 -175t178.5 -72.5t178.5 72.5t74 175t-74 174.5t-179 72v0zM218 291v229q-5 0 -10 -1q40 86 121 138.5t180 52.5t180.5 -52.5t120.5 -138.5q-4 1 -9 1v-229q48 0 82 33.5t34 81.5q0 31 -16 57.5t-43 41.5q-38 107 -133.5 175
t-215 68t-215 -68t-133.5 -175q-27 -15 -43.5 -41.5t-16.5 -57.5q0 -48 34.5 -81.5t82.5 -33.5v0zM761 161q-106 -97 -252 -97q-145 0 -251 96q-92 -46 -144 -125t-52 -183h897q0 104 -52.5 183.5t-145.5 125.5v0zM761 161z" />
    <glyph glyph-name="weixin" unicode="&#xe629;" 
d="M693 465q16 0 35 -2q-23 109 -127.5 181.5t-238.5 72.5q-98 0 -181 -40.5t-132 -112t-49 -155.5q0 -144 145 -245l-36 -109l126 64q6 -1 25.5 -5t27 -5.5t22.5 -4t27 -3.5t25 -1q16 0 34 2q-11 38 -11 76q0 119 89.5 203t218.5 84zM498 563q21 0 33.5 -12.5t12.5 -33
t-12.5 -33t-33.5 -12.5t-37.5 13t-16.5 32.5t16.5 32.5t37.5 13zM245 472q-22 0 -38.5 13t-16.5 32.5t16.5 32.5t38.5 13q20 0 32.5 -12.5t12.5 -33t-12.5 -33t-32.5 -12.5zM1024 182q0 71 -43 132t-113.5 96t-151.5 35q-129 0 -218.5 -77t-89.5 -186t89.5 -186t218.5 -77
q36 0 109 18l99 -54l-27 91q127 95 127 208zM616 228q-13 0 -24.5 11t-11.5 24.5t11.5 25t24.5 11.5q20 0 33 -11t13 -25.5t-13 -25t-33 -10.5zM816 228q-14 0 -25 11t-11 24.5t11 25t25 11.5q19 0 32 -11t13 -25.5t-13 -25t-32 -10.5z" />
    <glyph glyph-name="icon17" unicode="&#xe61f;" 
d="M872 236q0 73 -62.5 124.5t-151 51.5t-151 -51.5t-62.5 -124.5t62.5 -124.5t150.5 -51.5q33 0 64 8l86 -59l-8 95q72 52 72 132zM568 258q-14 0 -23.5 9.5t-9.5 23t9.5 23.5t23.5 10t24 -10t10 -23.5t-10 -23t-24 -9.5zM748 258q-14 0 -23.5 9.5t-9.5 23t9.5 23.5
t23.5 10t24 -10t10 -23.5t-10 -23t-24 -9.5zM619 432q-17 68 -81.5 113.5t-149.5 45.5q-98 0 -167 -59t-69 -143q0 -48 25 -90t69 -71l-8 -91l85 59q32 -8 65 -8q20 0 39 3q-5 21 -5 42q0 74 56.5 130.5t140.5 68.5zM478 501q14 0 24 -9.5t10 -23.5t-10 -24t-24 -10
t-23.5 10t-9.5 24t9.5 23.5t23.5 9.5zM298 434q-14 0 -24 10t-10 24t10 23.5t24 9.5t24 -9.5t10 -23.5t-10 -24t-24 -10z" />
    <glyph glyph-name="chengche" unicode="&#xe608;" horiz-adv-x="1366" 
d="M279 387q0 -7 5 -12t12 -5h78q7 0 12 5t5 12v90q0 7 -5 12t-12 5h-78q-7 0 -12 -5t-5 -12v-90zM319 380h32v-412h-32v412zM267 -24h136v-35h-136v35zM563 -38q0 -9 6 -15t15 -6h37q9 0 15.5 6t6.5 15v93q0 9 -6.5 15t-15.5 6h-37q-9 0 -15 -6t-6 -15v-93zM938 -38
q0 -9 6.5 -15t15.5 -6h37q9 0 15 6t6 15v93q0 9 -6 15t-15 6h-37q-9 0 -15.5 -6t-6.5 -15v-93zM483 312v-288h615v288h-615zM577.5 124q-16.5 0 -28 12t-11.5 28.5t11.5 28t28 11.5t28 -11.5t11.5 -28t-11.5 -28.5t-28 -12zM1000.5 124q-16.5 0 -28 12t-11.5 28.5t11.5 28
t28 11.5t28.5 -11.5t12 -28t-12 -28.5t-28.5 -12zM911 418zM875 418q0 15 10.5 25.5t25.5 10.5t25.5 -10.5t10.5 -25.5t-10.5 -25.5t-25.5 -10.5t-25.5 10.5t-10.5 25.5zM1001 336q-38 36 -90 36t-89 -36h179zM1010 659h-439q-37 0 -62.5 -25.5t-25.5 -61.5v-276
q0 -36 25.5 -62t62.5 -26h439q37 0 62.5 26t25.5 62v276q0 36 -25.5 61.5t-62.5 25.5zM663 608h255q9 0 14.5 -6t5.5 -14.5t-5.5 -14t-14.5 -5.5h-255q-9 0 -14.5 5.5t-5.5 14t5.5 14.5t14.5 6zM1042 324h-503v216h503v-216z" />
    <glyph glyph-name="chuanzhen" unicode="&#xe650;" 
d="M395 451h348v-19h-348v19v0zM395 510h348v-18h-348v18v0zM882 444v218h-375h-1h-206h-27v-27v-191h-84l1 -379l83 1v-92v-36h36h538h36v36v92l78 -1v379h-79v0zM344 608h467v-220h-467v220v0zM811 10h-467v124h467v-124v0zM395 564h348v-18h-348v18v0zM165 160h-30
q-8 0 -13 5q-6 19 -6 89q0 32 1.5 54t2.5 29l2 7q5 5 13 5h29q4 0 7 2t3 5v81q1 7 -5 7h-48q-8 0 -14 -5q-1 -2 -4 -5.5t-10.5 -19t-13.5 -34.5t-10.5 -52.5t-4.5 -73t4.5 -73.5t10.5 -53t13.5 -34t10.5 -19t4 -5q6 -5 14 -5h48q5 0 5 7v80q-2 8 -9 8v0zM165 160z" />
    <glyph glyph-name="xiayiye" unicode="&#xe60c;" 
d="M511.5 -147q-90.5 0 -173.5 35.5t-143 95.5t-95.5 143t-35.5 174t35.5 173.5t95.5 142.5t143 95.5t173.5 35.5t173.5 -35.5t143 -95.5t95.5 -142.5t35.5 -173.5t-35.5 -174t-95.5 -143t-143 -95.5t-173.5 -35.5zM511.5 702q-108.5 0 -201 -53.5t-146.5 -146t-54 -201.5
t54 -201.5t146.5 -146t201 -53.5t201 53.5t146.5 146t54 201.5t-54 201.5t-146.5 146t-201 53.5zM485 73q13 0 20 11l121 205q6 12 0 24l-121 205q-5 8 -14 10t-17.5 -2.5t-10.5 -14t3 -17.5l114 -193l-114 -193q-5 -8 -3 -17.5t10 -14.5q6 -3 12 -3z" />
    <glyph glyph-name="weixin1" unicode="&#xe60a;" 
d="M501 459q19 0 30.5 11t11.5 30t-11.5 30.5t-30.5 11.5q-20 0 -35 -12t-15 -30t15 -29.5t35 -11.5v0zM268 542q-20 0 -35.5 -12t-15.5 -30t15.5 -29.5t35.5 -11.5q18 0 29.5 11.5t11.5 30t-11.5 30t-29.5 11.5v0zM1000 192q0 98 -80 172.5t-193 83.5q1 3 0 5
q-22 105 -122.5 175.5t-228.5 70.5q-95 0 -175 -40t-127 -109t-47 -150q0 -135 131 -231l-30 -90q-3 -9 4 -16q5 -4 10 -4q4 0 7 2l112 56l14 -3q64 -13 101 -13q16 0 32 1q7 1 11 6q31 -77 108.5 -125.5t173.5 -48.5q36 0 98 16l87 -47q3 -2 7 -2q5 0 10 3q8 7 5 16l-22 74
q114 90 114 198v0zM406 133q-15 -2 -30 -2q-34 0 -95 13l-19 4q-5 1 -10 -1l-84 -42l22 65q4 11 -5 17q-127 89 -127 213q0 73 42.5 135t116 98t159.5 36q116 0 208 -63t113 -157q-122 -2 -208.5 -77t-86.5 -180q0 -29 9 -60q-3 1 -5 1v0zM859 12q-9 -7 -6 -17l15 -48
l-59 32q-4 2 -8 2h-3q-64 -16 -96 -16q-112 0 -190.5 66.5t-78.5 160t78.5 160t190.5 66.5q108 0 188 -67t80 -159q0 -97 -111 -180v0zM609 300q-12 0 -22.5 -10.5t-10.5 -23t10.5 -23t22.5 -10.5q19 0 30.5 10t11.5 23.5t-11.5 23.5t-30.5 10v0zM793 300q-12 0 -22.5 -10.5
t-10.5 -23t10 -23t23 -10.5q18 0 30 10t12 23.5t-12 23.5t-30 10v0zM793 300z" />
    <glyph glyph-name="dianhua" unicode="&#xe607;" 
d="M972 369v0h-7l-5 -1h-9h-9h-3h-4h-3l-4 -1h-4h-3h-4l-4 -1l-5 -1l-4 -1v0h-5l-5 1h-5h-5h-4h-4l-9 1h-8l-5 1h-5h-5h-5h-6h-7v0h-6l-7 1h-5h-6l-4 1h-5l-5 1l-4 1h-4l-4 1l-8 1l-10 1l-11 2v0l1 -5l1 -4l1 -5l1 -4l1 -4v-1l1 -3v-1l1 -2l1 -1v-2l1 -1v-2l1 -1v-2l1 -1
l1 -1l1 -1v-1l1 -1v-1l1 -1l1 -1l1 -1l1 -1v-1l1 -1l1 -1l1 -1h1v-1l1 -1h1l1 -1l1 -1h1l1 -1h1l2 -1h1l1 -1l1 -1h1l3 -1l2 -1l3 -1l3 -1h3l3 -1l4 -1l4 -1v0l7 -1h6l6 -1h6h6l5 -1h4h5l5 -1h6h6h6h6h8h17v0l4 1h5l4 1h3l4 1l3 1l3 1h2l1 1h2h1l1 1h2h1l1 1l2 1h1l1 1h1
l1 1h1l1 2h1v1l2 1h1v1l1 1l1 1l1 1l1 1v1l1 1l1 2v1l1 1l1 1v1l1 2v1l1 2v1l1 2v1l1 2v2l1 2v1l1 2v2v2l1 5l1 4zM54 369v0v-2v-2v-2v-2v-1v-2v-2v-1v-2l1 -2v-2v-1v-2l1 -1v-1v-2l1 -2v-1l1 -2l1 -1v-1l1 -1v-2l1 -1l1 -1v-1l2 -1v-1l1 -2l1 -1l1 -1h1l1 -2l1 -1h1l1 -1
l1 -1h1l1 -2h1l2 -1h1l1 -1l1 -1l1 -1h2l1 -1h1h2l1 -1h2l1 -1h1l2 -1h1h2h1h2h1l2 -1h1h2h1h2v0h7h7l7 -1h7h7h6h7h6h6h6h6h6h5l6 1h5h5v0l6 1l5 2h3l3 1h3l2 1l3 1l3 1l2 1h2l1 1h1h2l1 2h1l1 1h1l1 1h2l1 1l1 1l1 1l1 1h1l1 1l1 2h1l2 2l1 1l1 1v1l1 1l1 1l1 2l1 1l1 1
l1 2l1 1l1 2v2l1 1l1 2l1 2v2l1 2v2l1 2v2l1 2v2l1 3v9v0h-3l-2 -1h-5l-5 -1h-5l-5 -2h-5l-10 -1l-4 -1l-5 -1l-4 -1h-5h-2h-2l-2 -1h-3h-2h-2h-2h-2v0h-3h-3h-3h-3h-3l-3 1l-3 -1h-3h-6h-6h-6h-5l-6 -1h-5l-10 -1h-4h-4h-3l-3 -1v0l-2 1h-2l-1 1h-2l-2 1h-1h-4l-4 1h-4h-4
h-4l-5 1h-4h-4h-5h-10h-10zM243 -52v0h540v0h5h4h3l3 1h2h3h3h5v0l1 4l1 2l1 3l1 3l1 3l1 2l1 3v2l1 3l1 3v2l1 3v3l1 2v3v3v3l1 3v3v3l1 7v7l1 7v8l1 9v5v5l-93 264v0l-64 82v0v4v4l-1 4v4v4l-1 4v4v4v7v7v7v7v0l3 -1h3l3 -1h3l3 -1l2 -1h3l3 -1l3 -1l3 -1l3 -1h1l2 -1h1
l1 -1l2 -1h1l1 -1l2 -1h1l1 -1l1 -1h2l1 -1l1 -1l1 -1l1 -1l1 -1h1l1 -2h1l1 -1l1 -1l1 -2h1l1 -1l1 -1v-2l1 -1l1 -1v-1l1 -2l1 -1v-1v-2l1 -1v-1v-2l1 -1v-1v-3v-1v-1v0l13 -3l11 -1l10 -1l8 -1h9l9 -1l22 -2v0h7h6h7h5h5h5h5h5h5h4l10 -1h10l12 -1v0l10 1l8 1h4h4l4 1h4
h3h4h5l4 1h10h12v0l-2 11v9l-1 8l-1 4v4l-1 4l-1 3v4l-1 3v3l-1 4v3l-1 3l-1 3l-1 3v4l-1 3l-1 3l-1 3l-1 4l-1 3l-1 4l-2 3l-1 4l-2 3l-1 4l-2 4l-3 9v0l-3 4l-3 4l-3 3l-3 3l-2 3l-3 3l-2 3l-3 3l-2 2l-3 3l-2 2l-3 2l-2 3l-2 2l-3 1l-2 2l-2 1l-3 1l-2 2l-3 1l-2 1l-3 1
l-2 1l-3 1l-3 1l-3 1l-3 2l-3 1l-3 1l-3 1l-7 2v0l-9 3l-7 2l-7 3l-7 2l-6 2l-6 1l-6 1l-6 2l-5 1l-6 1l-5 2l-6 1l-7 1l-6 1l-7 1l-8 2l-12 2v0l-10 2l-11 1l-10 1l-11 2l-11 1l-10 1l-11 1l-11 1l-11 1l-10 1l-11 1l-11 1l-11 1l-11 1h-11l-11 1h-11l-11 1h-11h-11h-11
h-11h-5h-6h-5h-5h-6h-5h-5h-6h-5h-6l-5 -1h-6h-5l-5 -1h-5h-6l-5 -1h-5l-6 -1h-5l-14 -2v0l-6 -1h-6l-6 -1h-5l-5 -4h-6l-6 -1h-5l-6 -1l-5 -1l-5 -1h-6l-5 -1h-5l-10 -3l-10 -1l-10 -2l-10 -1l-9 -2l-19 -4l-18 -3v0l-5 -1l-5 -1l-5 -1l-5 -1l-5 -1l-5 -1l-5 -2l-5 -1
l-5 -1l-4 -2h-3l-2 -1l-2 -2l-3 -1l-2 -1h-2l-3 -2l-2 -1h-3l-2 -1l-2 -1l-2 -1l-3 -2l-2 -1l-2 -1l-2 -1l-3 -2l-2 -1l-2 -1l-2 -1l-3 -1l-2 -2l-2 -1l-2 -2l-2 -1l-2 -2l-2 -1l-2 -3l-2 -1l-2 -1l-2 -3l-2 -2l-2 -2l-2 -2l-2 -2l-2 -2l-2 -3l-2 -2l-2 -3l-2 -2l-1 -2
l-2 -3l-2 -3l-2 -2l-4 -9v0l-2 -4l-1 -4l-2 -3l-2 -4l-1 -3l-1 -4l-1 -3l-1 -3l-1 -4l-2 -3v-3l-1 -3l-1 -4l-1 -3v-3l-1 -3l-1 -3v-4v-3l-1 -3v-3l-1 -4v-3v-3l-1 -8l-1 -7v-8l-1 -9v0h5h5h6h4h5h5h5l4 -1h4h5l4 -1h4l8 -1l8 -1v0h4l5 1h4h5l11 1h11l6 1h6h5h6h2h3h3h2h3h3
h2h3v0h5h5l5 1h5l10 2l11 1l10 1h5l5 1h6l5 1h6l5 1v0v1l1 2v2v2l1 1v2v1v2l1 1v1l1 2v1l1 1v6l1 1v1l1 1l1 1v1l2 1v1l1 1l1 1l1 1h1l1 1l1 1l1 1l1 1h1l1 1l1 1h1l1 1l1 1h2l1 1h1l1 1h2l1 1l1 1l3 1h3l3 1l3 1l2 1l3 1h4l2 1h4l3 1h3v0v-59l-64 -79v0l-94 -265v0l1 -9v-8
v-15l1 -6v-6v-6l1 -3v-3v-2v-3v-3l1 -2v-3v-2l1 -3v-3v-2l1 -3l1 -3v-3l1 -2l1 -4l1 -2v-4l8 -4v0h2h2h1h2h1h1l3 -1h3h1h2l2 -1h1h3h2v2zM411 410v0l-4 7l-2 4l-2 3l-1 4l-2 3l-2 4l-1 4l-1 3l-2 3l-1 4l-1 3l-2 3l-1 4l-1 3l-2 4v0h4l4 1l5 1l4 1l4 1l4 1l4 1l4 1l4 1h4
l3 1l4 1h4l4 1l4 1h4l4 1h4l4 1h4h4l4 1h3l4 1h4h4h4h4l4 1h3h4h4h4h4h4h4l3 -1h4h4h4h4l4 -1h3l4 -1h4h4l4 -1h4l4 -1h4l4 -1l3 -1h4l4 -1l4 -1l4 -1l4 -1l4 -1h4l4 -1l4 -1l3 -1l4 -1l4 -1v0l-3 -7l-3 -7l-3 -7l-2 -7l-2 -4l-1 -3l-1 -4l-2 -4l-1 -3l-1 -4l-2 -3l-1 -3v0
h-6l-7 1h-7l-6 1h-7l-6 1h-7h-6h-7l-6 1l-7 1h-7h-6h-6h-6h-7h-6h-6h-7h-6h-6l-6 -1h-7h-6h-6l-6 -1h-7h-6l-6 -1l-6 -1h-7l-5 -1v0zM514 363v0l3 1h3h3l3 -1h2h3h3l2 -1h3h3l2 -1h3l3 -1l2 -1l3 -1l2 -1h3l2 -2l3 -1h2l3 -2l2 -1l2 -1l2 -1l3 -2l2 -1l2 -1l2 -2l2 -1l2 -2
l3 -2l1 -1l3 -3l1 -2l2 -1l2 -2l2 -2l2 -3l2 -2l2 -2l1 -3l2 -2l2 -3l1 -2l2 -2l1 -3l2 -2l1 -3l2 -2l1 -3l1 -3l2 -2l1 -3l1 -3l1 -2l1 -3l1 -3l2 -3l1 -2l1 -3v-3l2 -3v-3l1 -3l1 -2v-3l1 -3l1 -3l1 -3v-3l1 -3v-3v-3l1 -3v-3v-3v-3l1 -3v-3v-3v-3v-3v-3l-1 -2v-4v-3v-2
v-3l-1 -3l-1 1v-3l-1 -3l-1 -3v-3l-1 -3l-1 -3v-3l-1 -2l-1 -3l-1 -3l-1 -3l-1 -2l-2 -3l-1 -3l-1 -2l-1 -3l-2 -3l-1 -2l-1 -1l-2 -3l-1 -2l-2 -3l-2 -2l-1 -2l-2 -3l-2 -2l-2 -3l-2 -2l-2 -2l-2 -2l-2 -2l-3 -2l-2 -3l-2 -2l-3 -1l-2 -2l-3 -2l-2 -1l-11 -7v0l-3 -2l-3 -1
l-4 -1l-3 -2l-4 -1l-3 -1l-3 -1l-4 -1l-3 -1h-4l-3 -1l-4 -1h-3l-4 -1h-3l-4 -1h-3h-3h-4h-3h-3h-2h-2h-1h-2l-1 1h-2h-2l-1 1h-2h-1h-2l-2 1h-1h-2l-1 1h-2h-1l-2 1l-1 1h-2l-1 1h-1v0l-2 1h-2l-1 1h-2l-2 1l-1 1l-2 1h-2l-1 1l-2 1l-2 1l-1 1l-2 1h-2l-1 2h-2l-2 1l-1 1
l-2 1l-1 2l-2 1l-1 1l-2 1l-1 1l-2 1l-1 1l-2 1l-1 2l-2 1l-1 1l-2 1l-1 1l-1 2l-2 1l-1 1l-1 2l-2 1l-1 1l-1 2l-1 1l-2 1l-1 2l-1 1l-1 2l-1 1l-1 1l-1 2l-1 1l-1 2l-1 1l-1 2l-1 1l-1 2l-1 1l-1 1v2l-1 1l-1 2v1l-1 2l-1 2v1l-1 2v1v0l-1 2l-1 3v1l-1 2v2l-1 2v2l-1 2v2
v2l-1 3l-1 2v1v2l-1 3v2v2v2l-1 2v2v3v2v2v2l-1 2v2v3v2v2v1v2v3l1 2v2v2v2v2v3l1 2v1v2l1 3v2v2l1 1v3l1 2v1l1 2v2l1 2l1 2v2l1 2l1 1l1 2v2l1 2l1 1l1 2l1 2l1 1l1 2l1 1l6 14v0l1 2l1 2l1 3l1 2l1 2l1 2l2 2l1 2l1 2l2 2l1 2l1 1l2 2l1 2l2 1l1 2l2 1l1 2l2 1l2 1l2 2
l1 1l2 1l2 1l2 2l2 1l1 1l2 1l2 1l2 1l2 1l2 1l2 1l2 1h2l2 1l2 1l2 1l2 1h2l2 1h2l2 1l2 1h2l2 1h2l2 1h2h2l2 1h2l2 1h2h2h2h2h1h3l1 1h2h2h2z" />
    <glyph glyph-name="qq" unicode="&#xe67c;" 
d="M372 -198h-69l-73 11l-52 18l-28 22l-8 13l-5 17q-1 2 -1 4v3q0 2 1 4v4q0 2 1 4l1 14q0 2 1 4l7 17l2 4l3 3v1l5 6l2 2l10 7q3 2 5 3l27 10l-16 15l-29 37l-14 24q0 2 -1 4l-8 20l-31 -33l-15 -10l-18 -6l-10 -1h-3t-5 1q-8 3 -10 8q-3 3 -4 5l-9 23l-4 37l1 36l11 52
l12 33l26 48l32 41l51 47l-2 7v4v16v4l10 30l9 17l1 15l11 31l4 6v15l7 40l14 44l20 41l38 54l31 33l32 28l33 20l64 24l71 13l61 1l46 -6l59 -14l43 -17l27 -14l33 -23l30 -27l23 -28l23 -40l28 -77l7 -32l7 -43l20 -38l10 -41v-7l-1 -7v-4v-4l-4 -17q-1 -2 -2 -3l-2 -5
l55 -93l22 -54l9 -38l5 -58l-6 -36l-14 -33l-14 -16q-2 -2 -4 -3l-6 -3q-1 0 -5 -1q-2 -1 -5 -1h-4q-2 0 -5 1t-4 1l-5 3q-1 0 -4 2t-4 3l-11 11l-17 26l-12 -29l-38 -56l35 -18l25 -20q1 0 2 -2l11 -15l7 -23q0 -4 -1 -7v-2v-4l-1 -3q-1 -3 -2 -5l-1 -1q-1 -3 -1 -4
l-18 -23l-18 -12l-39 -16l-48 -9l-69 -3l-76 8l-46 11l-54 17l-33 2l-41 -23l-46 -16l-42 -5l-12 -1h-1zM168 -111l8 -18l11 -9l31 -14l64 -12l23 -3h67l36 3l30 7l58 28l3 4q6 5 13 4l29 -3h11h4l39 -13l29 -9l85 -13l15 -1l65 2l52 12l30 14l12 13l4 4q1 4 2 5v2v4h1
l-6 14l-6 7l-19 14l-18 11l-30 15q-2 1 -4 3q-4 4 -5 11.5t3 12.5l19 21l27 41l18 45q0 2 1 3l3 6q2 3 5 6l3 1q8 6 17 1q5 -2 7 -6l35 -55l3 -2l6 4l11 19l5 21l3 21l-2 33l-10 50l-28 64l-23 44l-26 37l-0.5 1.5t-1.5 1.5q-1 3 -1 7t1 6l9 38l-3 19l-8 22l-16 29
q-2 2 -3 5v4l-9 56l-21 69l-30 54l-55 55l-33 21l-38 17l-40 11l-71 12l-55 -1l-67 -12l-36 -12l-42 -21l-25 -20l-41 -41l-36 -52l-26 -61l-11 -50l1 -18q0 -6 -4 -11l-7 -11l-5 -25v-5q0 -4 -3 -9l-9 -14l-7 -27v-11l3 -12q4 -11 -5 -17l-47 -41l-23 -26l-28 -42l-20 -51
l-11 -47v-16l1 -29l7 -30l11 4l23 19l19 30q0 4 2 6q3 6 7 8l1.5 1l1.5 1q7 3 15 -1h1q8 -4 9 -11l9 -29l29 -53l39 -39l12 -9q3 -2 6 -5q4 -6 4 -11q0 -8 -5 -13q-3 -3 -7 -4v0q-4 -1 -6 -1l-39 -9l-3 -2q-1 -1 -3 -1l-3 -2l-6 -3l-4 -5l-1 -1.5l-1 -1.5l-5 -13v-4v-6
l-1 -5v-3v-2z" />
    <glyph glyph-name="tucexiayige" unicode="&#xe616;" 
d="M932 382l-511 511l-15 -16l495 -495l-495 -494l15 -16l495 495zM932 382z" />
    <glyph glyph-name="tuceshangyige" unicode="&#xe617;" 
d="M161 383l16 16v0l496 496l15 -16l-495 -496l495 -495l-15 -16l-496 496v0zM161 383z" />
    <glyph glyph-name="iconfonttrophy" unicode="&#xe61b;" 
d="M960 689v15h-162q1 31 1.5 63t-0.5 48v17h-285h-2h-2h-286q-2 -59 1 -128h-161v0v-41v-1v-22v0q4 -108 45 -193q44 -92 126 -151q67 -49 152 -70q46 -49 93 -62v-71q-2 -9 -5.5 -18t-17 -23.5t-33.5 -25t-57 -18.5t-85 -8h-26v-64h512v64h-26q-41 0 -73.5 5.5t-53 14
t-35 19t-21.5 21t-10.5 19.5t-4.5 14v6v65q46 13 92 61q85 21 153 71q82 59 126 151q22 44 32.5 96.5t11.5 80t1 65.5zM167 475q-35 71 -39 165h101q3 -29 7 -52q29 -170 85 -270q-104 53 -154 157zM857 475q-50 -105 -155 -158q56 100 85 271q4 23 6 52h103
q-4 -94 -39 -165z" />
    <glyph glyph-name="xiaohuojian" unicode="&#xe61d;" 
d="M493 896h32q-1 -11 0.5 -14.5t7.5 -8.5q129 -102 172 -268q-35 0 -194.5 -0.5t-193.5 1.5q43 153 146 246q3 2 11 8t13 11t6 8q1 2 1 6.5t-0.5 7t-0.5 3.5v0v0v0zM310 575h403q18 -92 16 -147q-3 -54 -21 -142q-25 -112 -67 -257h-257q-34 99 -69 255q-38 174 -6 288
q0 2 1 3v0v0v0zM433 453q-13 -42 11.5 -75.5t66.5 -32.5q37 0 61 27q18 19 20.5 44.5t-7.5 46.5t-32 35t-50 11q-54 -6 -70 -56v0v0v0zM125 258v31q12 114 132 149q16 -178 73 -344q-19 -27 -28 -41t-18.5 -43t-8.5 -59q-137 110 -150 307v0v0v0zM767 438q80 -25 111 -81
q31 -58 12 -165q-13 -72 -53 -139q-42 -70 -89 -101q2 58 -37 117q-3 3 -7.5 8.5t-7.5 10t-3 6.5q-1 4 1.5 11t6 15.5t5.5 12.5q47 152 60 303q0 1 1 2v0v0v0zM419 -2h184q-6 -11 -18.5 -31.5t-18.5 -32.5q-6 4 -14.5 13.5t-13.5 12.5q-4 -16 -13.5 -45.5t-14.5 -42.5
q-7 17 -19 49.5t-15 38.5q-4 -8 -12 -24.5t-11 -20.5q-9 20 -34 83v0v0v0zM419 -2z" />
    <glyph glyph-name="hezuogongying" unicode="&#xe627;" 
d="M28 327l56 -29q3 -2 7.5 -3.5t15 1.5t16.5 15l139 290q1 2 3 6.5t0 14.5t-11 15l-61 30q-19 10 -32 -12q0 -4 -35.5 -78t-71 -145.5l-35.5 -71.5q-9 -24 9 -33zM943 297l57 27q1 0 2.5 1t6 4.5t6 7.5t3 10.5t-3.5 14.5l-143 288q0 1 -1 2.5l-4 6t-7 6t-9.5 3.5t-12.5 -2
l-61 -30q-2 -1 -4.5 -3t-7 -10t1.5 -18q3 -3 39.5 -76.5t71 -146l34.5 -72.5q1 -2 3.5 -5t11 -8t17.5 0zM164 298l19 40l66 -83q5 1 12.5 2t23.5 -3t22 -16q2 -2 4 -5.5t5 -16t-1 -26.5q9 -6 10 -10q30 7 47 -14q2 -2 5 -4.5t7 -12.5t3 -22q12 -5 14 -12q29 8 43 -9
q2 -2 5 -5.5t7.5 -12.5t3.5 -17l27 -20q26 -2 30 -22l24 -18q2 -1 4.5 -1.5t9 -1t12 1t10 8t5.5 16.5l-91 70q-1 1 -1.5 3t-0.5 6.5t2 7.5t7.5 5.5t15.5 0.5l135 -95q23 -10 36 11q13 19 -6 38l-144 105q0 1 -1 3t-1.5 7t1 8.5t7 6t14.5 2.5l171 -122q25 -9 35 9q14 18 0 37
l-189 138q-1 1 -1 3t-0.5 7.5t2 8.5t7.5 6t16 -1l195 -139q3 -1 8.5 -2t17 2.5t17.5 14.5q1 3 3.5 8t1.5 17.5t-11 21.5l-276 241q-2 1 -5.5 2t-14 2.5t-20.5 0t-21.5 -9.5t-20.5 -22q0 -3 -1 -9t-7 -21t-15.5 -27.5t-29 -24.5t-45.5 -17q-1 0 -3.5 0.5t-9 1.5t-11.5 3
t-12 5.5t-9.5 8.5t-5 12t1.5 16q2 2 5.5 7.5t8 25.5t3.5 43q3 37 28 69h-99l22 45h150q7 4 18.5 9.5t40 14.5t49.5 8q60 -4 77 -13q9 -3 23 -7t45.5 -9.5t47.5 -2.5l134 -279l-21 -48q1 -2 3.5 -5t8 -12.5t8 -19.5t0.5 -24.5t-10 -28.5q-15 -31 -63 -34q6 -33 -18 -51
q-2 -3 -6 -6.5t-19.5 -8.5t-34.5 -3q3 -29 -25 -48q-4 -3 -11 -7t-29 -3t-45 16q-1 -4 -3.5 -9.5t-15 -16t-31.5 -13.5q-30 -5 -47 12q-1 -3 -3.5 -6.5t-10.5 -12t-16.5 -13t-21 -4t-24.5 9.5q-1 1 -3 2.5t-6 7.5t-5.5 12.5t-0.5 15.5t6 19q-1 -3 -4 -6.5t-12 -11.5
t-18.5 -12t-23 -1t-25.5 16q-1 0 -2.5 1.5t-4.5 7t-4.5 12t0.5 16.5t9 21l-4.5 -4.5t-11 -7.5t-17 -7t-20.5 1.5t-23 13.5q-1 1 -2.5 3t-5 8t-5 12.5t0 17.5t7.5 22q-2 -1 -4.5 -4t-11 -8t-17.5 -7t-22 2t-25 15q-2 2 -4 6t-6 17.5t3 30.5l41 57z" />
    <glyph glyph-name="icon05" unicode="&#xe628;" 
d="M526 533q0 6 -4.5 10t-10.5 4v0q-6 0 -10 -4t-4 -10v-169q0 -6 4 -10t10 -4v0q6 0 10.5 4t4.5 10v169zM480 783l-236 -471q-11 -22 5.5 -40.5t39.5 -9.5l220 85q2 0 7 -1l4 14l-5 -13l220 -85q23 -9 39.5 9.5t5.5 40.5l-236 471q-11 20 -33 20t-31 -20v0zM506 771
q1 4 6 3.5t7 -4.5l235 -471q2 -4 -1 -8t-8 -2l-222 85q-13 3 -23 0l-221 -85q-5 -2 -8 2t-1 8zM512 78q9 0 16 6.5t7 16t-7 16t-16 6.5t-16 -6.5t-7 -16t7 -16t16 -6.5v0zM512 -35q9 0 16 6.5t7 16t-7 16t-16 6.5t-16 -6.5t-7 -16t7 -16t16 -6.5v0zM512 191q9 0 16 7t7 16
t-7 16t-16 7t-16 -7t-7 -16t7 -16t16 -7v0z" />
    <glyph glyph-name="houtuishangyige" unicode="&#xe625;" 
d="M695 56l-296 299l286 295q9 9 9 22.5t-9 22.5q-9 10 -22 10t-22 -10l-310 -320q-9 -10 -9 -23t9 -22q2 -2 8 -6l311 -314q10 -10 23 -10t23 10q8 9 8 22.5t-9 23.5z" />
    <glyph glyph-name="qianjinxiayige" unicode="&#xe626;" 
d="M695 376l-318 320q-10 9 -23 9t-22 -9q-10 -10 -10 -23.5t10 -22.5l293 -295l-304 -299q-9 -9 -9 -22.5t9 -22.5q10 -10 23.5 -10t22.5 10l319 314q8 7 12.5 14.5t4.5 17.5t-8 19z" />
    <glyph glyph-name="home" unicode="&#xe653;" 
d="M427 43v256h170v-256h214v341h128l-427 384l-427 -384h128v-341h214z" />
    <glyph glyph-name="caizhi" unicode="&#xe62f;" 
d="M1015 236q-9 65 -51 116q-6 9 -5 20q14 78 -23 147q-29 53 -82 83t-113 27h-1q-19 -1 -26 17q-30 81 -109 118t-161 7q-43 -16 -75.5 -48.5t-48.5 -76.5q-8 -18 -27 -16q-60 3 -114 -26.5t-83 -82.5q-38 -69 -24 -146q2 -11 -4 -20q-43 -52 -51.5 -119t19.5 -127l1 -1
q28 -56 82 -88t117 -31h1q63 4 128.5 37t113.5 83h76q48 -50 113.5 -83t128.5 -37h1h3q61 0 113 31q54 32 83 88v1q27 61 18 127zM964 124q-25 -46 -69 -72.5t-96 -25.5q-49 4 -102 28t-95 61q34 8 64 24q68 43 100 116q-79 8 -150 -28q-50 -32 -82 -83q19 45 21 94
q-2 71 -39 129q-37 -58 -39 -127q1 -50 21 -96q-32 51 -82 83q-71 37 -150 28q33 -73 100 -116q31 -16 66 -24q-43 -38 -95 -61.5t-102 -27.5q-53 -1 -97 25.5t-68 73.5q-24 50 -17 106.5t43 99.5l1 1q16 22 11 48q-11 65 20 123q25 44 69 68t94 21q20 -1 37.5 10t25.5 30v0
q13 36 40 63t63 40q67 25 132 -5t90 -98v0q8 -19 25.5 -30t37.5 -10q50 2 94 -22.5t67 -68.5q32 -58 20 -123q-4 -27 12 -48l1 -1q35 -43 42.5 -98.5t-14.5 -106.5z" />
    <glyph glyph-name="xiayige" unicode="&#xe633;" 
d="M514 502l83 -83h-244v-30h242l-81 -81l25 -25l97 97l27 24l-124 123zM508 790q-109 0 -201.5 -53.5t-146.5 -146t-54 -202t54 -202t146.5 -146t201.5 -53.5t201.5 53.5t146.5 146t54 202t-54 202t-146.5 146t-201.5 53.5zM508 18q-101 0 -186.5 49.5t-135 135t-49.5 186
t49.5 186t135 135.5t186.5 50t186.5 -50t135 -135.5t49.5 -186t-49.5 -186t-135 -135t-186.5 -49.5z" />
    <glyph glyph-name="ditu" unicode="&#xe61e;" 
d="M802 549q0 74 -40.5 138.5t-108 101.5t-143.5 37t-142 -37t-106 -101t-40 -139q0 -40 29.5 -104t71 -127t84 -120.5t71.5 -93.5l29 -36q12 14 32 37t70.5 89t89.5 123.5t71 124t32 107.5v0v0zM418 539q0 39 28.5 67t68.5 28t68.5 -28t28.5 -67t-28.5 -67t-68.5 -28
t-68.5 28t-28.5 67v0v0zM608 60q1 -4 1 -8q0 -19 -28.5 -33t-68.5 -14t-68 14t-28 33q0 4 1 8q-45 -9 -71.5 -23.5t-26.5 -31.5q0 -26 56.5 -44.5t136.5 -18.5t137 18.5t57 44.5q-1 17 -27.5 31.5t-70.5 23.5v0v0zM608 60z" />
    <glyph glyph-name="liulan" unicode="&#xe63b;" 
d="M390 375q0 -24 9 -46.5t26.5 -39.5t39.5 -26.5t46.5 -9.5t46.5 9.5t39.5 26.5t26.5 39.5t9 46.5t-9 46.5t-26.5 39.5t-39.5 26.5t-46.5 9.5t-46.5 -9.5t-39.5 -26.5t-26.5 -39.5t-9 -46.5v0zM390 375zM949 404q-1 12 -108 112q-189 164 -391 139q-21 -2 -42 -7.5
t-38.5 -11.5t-33 -12.5t-28 -13.5t-21 -12t-15 -9t-6.5 -5q-32 -17 -75 -55.5t-71 -68.5q-7 -6 -16.5 -15.5t-13.5 -14t-9 -11t-8 -12.5q-9 -20 -6.5 -38t7.5 -29.5t6 -11.5l68 -68q6 -7 17.5 -18.5t48.5 -40.5t76 -51t96.5 -40t113.5 -18q66 0 122 11t97.5 32t61.5 34
t46 33q5 5 8 7q56 44 114 121q8 17 8 35.5t-4 28.5l-4 10v0zM511 171q-84 0 -144 59.5t-60 144.5t60 144.5t144.5 59.5t144.5 -59.5t60 -144.5t-60 -144.5t-145 -59.5v0zM511 171z" />
    <glyph glyph-name="xiayiye1" unicode="&#xe63c;" 
d="M512 830q-91 0 -174 -35.5t-143 -95.5t-95.5 -143t-35.5 -174t35.5 -174t95.5 -143t143 -95.5t174 -35.5t174 35.5t143 95.5t95.5 143t35.5 174t-35.5 174t-95.5 143t-143 95.5t-174 35.5zM512 -29q-112 0 -206.5 55t-150 149.5t-55.5 206.5t55.5 207t150 150t206.5 55
t207 -55t150 -150t55 -207t-55 -206.5t-150 -149.5t-207 -55zM693 398l-11 11q-2 2 -5 3l-222 223q-11 11 -22 0l-11 -11q-11 -11 0 -22l216 -216l-214 -214q-11 -11 0 -22l11 -11q10 -10 21 0l218 218q6 0 10 5l11 11q9 9 2 19q-1 4 -4 6z" />
    <glyph glyph-name="jungongzhang" unicode="&#xe63d;" 
d="M893 187zM492 558zM568 557zM831 746l-88 90q-7 7 -16 9q-5 2 -9 2h-380q-7 0 -13 -5q-6 -2 -9 -6l-92 -90q-9 -9 -10 -22t6 -23l169 -258q-57 -36 -90.5 -95.5t-33.5 -128.5q0 -110 77.5 -187.5t186.5 -77.5t186.5 77.5t77.5 187.5q0 73 -37.5 135t-99.5 96l179 250
q7 11 6 24t-10 22zM464 679h123l-63 -91zM619 724h-184l-52 78h291zM261 719l75 74l203 -310h-10q-52 0 -100 -20zM749 219q0 -91 -64.5 -155.5t-155.5 -64.5t-155.5 64.5t-64.5 155.5t64.5 155t155.5 64t155.5 -64t64.5 -155zM618 474q-2 -2 -3 -5q-8 2 -16 5l-1 2l-48 72
l172 245l72 -73z" />
    <glyph glyph-name="youxiang-copy" unicode="&#xe63e;" 
d="M342 392q-3 0 -5 2l-178 179q-6 5 -0.5 10t10.5 0l179 -179q5 -5 0 -10q-3 -2 -6 -2zM902 74h-780q-24 0 -40.5 17t-16.5 40v506q0 23 16.5 40t40.5 17h776q32 0 46 -30q13 -28 -9 -55l-1 -1l-221 -202q-6 -5 -11 0.5t1 10.5l221 201q16 20 7 40q-10 21 -33 21h-776
q-18 0 -30.5 -12.5t-12.5 -29.5v-506q0 -17 12.5 -29.5t30.5 -12.5h780q18 0 30.5 12.5t12.5 29.5v327q0 7 7 7t7 -7v-327q0 -23 -16.5 -40t-40.5 -17zM582 427q-8 -84 -8 -87q0 -31 18 -31q16 0 27 18t11 47q0 42 -26.5 68.5t-73.5 26.5q-46 0 -76 -32t-30 -80
q0 -47 28 -76t77 -29q37 0 65 13v-20q-27 -12 -67 -12q-56 0 -91 34t-35 89q0 56 36.5 93.5t93.5 37.5q53 0 87.5 -31t34.5 -81q0 -37 -18.5 -60.5t-45.5 -23.5q-34 0 -34 36h-1q-11 -36 -44 -36q-21 0 -34 15.5t-13 41.5q0 35 18 58t47 23q11 0 19.5 -5.5t10.5 -13.5h1
l1 17h22zM486 348q0 -17 7.5 -27.5t21.5 -10.5q18 0 29 18.5t11 49.5q0 32 -27 32q-19 0 -30.5 -18t-11.5 -44z" />
    <glyph glyph-name="xiangxiajiantou" unicode="&#xe64c;" 
d="M544 192q-19 0 -26 6l-256 256q-9 10 -9 23t9.5 22.5t22.5 9.5t22 -10l237 -230l230 230q10 10 23 10t22.5 -9.5t9.5 -22.5t-10 -23l-256 -256q-13 -6 -19 -6z" />
    <glyph glyph-name="xiangxiajiantou-copy" unicode="&#xe64d;" 
d="M480 576q19 0 26 -6l256 -256q9 -10 9 -23t-9.5 -22.5t-22.5 -9.5t-22 10l-237 230l-230 -230q-10 -10 -23 -10t-22.5 9.5t-9.5 22.5t10 23l256 256q13 6 19 6z" />
    <glyph glyph-name="pinpai" unicode="&#xe642;" 
d="M936 554l-17 22q-16 22 -18 50l-3 27q-2 26 -19 50.5t-40 35.5l-25 12q-9 5 -21.5 15.5t-18.5 19.5l-15 24q-14 21 -40 35t-52 13l-27 -1q-28 -1 -52 13l-24 13q-22 13 -51.5 13t-52.5 -13l-24 -13q-24 -14 -52 -13l-27 1q-26 1 -52 -13t-40 -35l-15 -24
q-6 -9 -18.5 -19.5t-21.5 -15.5l-25 -12q-23 -11 -40 -35.5t-19 -50.5l-3 -27q-2 -28 -19 -50l-16 -22q-15 -21 -18.5 -50.5t6.5 -52.5l10 -26q11 -26 7 -53l-5 -27q-4 -26 6.5 -53.5t30.5 -43.5l22 -18q8 -7 17 -20.5t13 -23.5l9 -26q2 -7 6 -14l-99 -169h143l69 -105
l87 149q35 -13 67 -4l26 7q27 8 54 0l26 -7q30 -9 64 3l86 -148l69 105h143l-97 166q5 8 8 17l9 26q4 10 13 23.5t17 20.5l22 18q20 16 30.5 43.5t6.5 53.5l-5 27q-4 28 7 53l10 26q10 23 6.5 52.5t-18.5 50.5zM512 88q-98 0 -181.5 48.5t-132 132t-48.5 181.5t48.5 181.5
t132 132t181.5 48.5t181.5 -48.5t132 -132t48.5 -181.5t-48.5 -181.5t-132 -132t-181.5 -48.5zM512 774q-88 0 -162.5 -43.5t-118 -118t-43.5 -162.5t43.5 -162.5t118 -118t162.5 -43.5t162.5 43.5t118 118t43.5 162.5t-43.5 162.5t-118 118t-162.5 43.5zM628 291l-111 59
l-113 -57l22 125l-89 89l125 18l58 112l55 -114l125 -20l-91 -87z" />
    <glyph glyph-name="zhuanzhu" unicode="&#xe634;" 
d="M499 581q-50 0 -101.5 -18.5t-89.5 -46t-68.5 -56.5t-46.5 -51t-16 -29.5t16 -29.5t47 -51t69 -56.5t89 -46t101 -18.5t101.5 19t89.5 46.5t68.5 57t46.5 51t16 28t-16 28.5t-46.5 51t-68.5 56.5t-89.5 46.5t-101.5 19zM499 214q-68 0 -116.5 49t-48.5 117t48.5 116.5
t116.5 48.5t116.5 -48.5t48.5 -116.5q0 -69 -48.5 -117.5t-116.5 -48.5zM863 644l-47 -46q-7 -8 -7 -18t7.5 -17.5t17.5 -7.5t17 7l47 47q8 8 8 18t-8 17q-7 7 -17.5 7t-17.5 -7zM173 562q7 -7 17 -7t17.5 7.5t7.5 17.5t-7 18l-47 46q-8 8 -18 8t-17.5 -7.5t-7.5 -17.5
t8 -18zM512 650q10 0 16.5 7t6.5 17v96q0 10 -6.5 17t-16.5 7t-16.5 -7t-6.5 -17v-95q0 -10 6.5 -17.5t16.5 -7.5zM629 118h-260q-11 0 -19 -8t-8 -19t8 -18.5t19 -7.5h260q11 0 18.5 7.5t7.5 18.5t-8 19t-18 8zM590 26h-182q-11 0 -18.5 -8t-7.5 -19t7.5 -18.5t18.5 -7.5
h182q11 0 18.5 7.5t7.5 18.5t-7.5 19t-18.5 8zM499 475q-16 0 -31 -5q10 -12 10 -27q0 -17 -11.5 -28.5t-27.5 -11.5q-18 0 -29 12q-8 -17 -8 -37q0 -39 28 -67t67.5 -28t67 28t27.5 67q2 40 -26 68.5t-67 28.5zM526.5 321q-11.5 0 -19.5 8.5t-8 19.5q0 12 8 20t20 8
q11 0 19 -8.5t8 -19.5t-8 -19.5t-19.5 -8.5z" />
  </font>
</defs>
</svg>
